Notifications
Clear all

Ben 10 | Türkçe Dublaj | DvD XviD-PTRip  

  RSS
Mehmet©
(@mehmet1989)
Yönetici Admin

[align=center:2bgq8h83]


http://www.imdb.com/title/tt0760437/


[align=left]

General
Complete name                    : 01 - And Then There Were 10.avi
Format                          : AVI
Format/Info                      : Audio Video Interleave
File size                        : 176 MiB
Duration                        : 21mn 59s
Overall bit rate                : 1 120 Kbps
Writing application              : VirtualDubMod 1.5.10.2 (build 2540/release)
Writing library                  : VirtualDubMod build 2540/release

Video
ID                              : 0
Format                          : MPEG-4 Visual
Format profile                  : Advanced Simple@L5
Format settings, BVOP            : Yes
Format settings, QPel            : Yes
Format settings, GMC            : 3 warppoints
Format settings, Matrix          : Default (H.263)
Codec ID                        : XVID
Codec ID/Hint                    : XviD
Duration                        : 21mn 59s
Bit rate                        : 986 Kbps
Width                            : 640 pixels
Height                          : 480 pixels
Display aspect ratio            : 4:3
Frame rate                      : 25.000 fps
Color space                      : YUV
Chroma subsampling              : 4:2:0
Bit depth                        : 8 bits
Scan type                        : Progressive
Bits/(Pixel*Frame)              : 0.128
Stream size                      : 155 MiB (88%)
Writing library                  : XviD 1.2.1 (UTC 2008-12-04)

Audio
ID                              : 1
Format                          : MPEG Audio
Format version                  : Version 1
Format profile                  : Layer 3
Codec ID                        : 55
Codec ID/Hint                    : MP3
Duration                        : 21mn 59s
Bit rate mode                    : Variable
Bit rate                        : 121 Kbps
Nominal bit rate                : 128 Kbps
Channel(s)                      : 2 channels
Sampling rate                    : 48.0 KHz
Stream size                      : 19.1 MiB (11%)
Alignment                        : Aligned on interleaves
Interleave, duration            : 24 ms (0.60 video frame)
Interleave, preload duration    : 503 ms
Writing library                  : LAME3.98r
Encoding settings                : -m s -V 4 -q 2 -lowpass 17 --abr 128

[/align:2bgq8h83]






Sezon 1[/size]
http://turbobit.net/s1cyxut6phj5/B10.S01B01.TR.DvD.XviD-PTRip.rar.html
http://turbobit.net/1vlxgft7g2fn/B10.S01B02.TR.DvD.XviD-PTRip.rar.html
http://turbobit.net/5vtvpehkuuas/B10.S01B03.TR.DvD.XviD-PTRip.rar.html
http://turbobit.net/6e8xc2kvudgy/B10.S01B04.TR.DvD.XviD-PTRip.rar.html
http://turbobit.net/rrngqhv3y3pn/B10.S01B05.TR.DvD.XviD-PTRip.rar.html
http://turbobit.net/dcm04rth9ns2/B10.S01B06.TR.DvD.XviD-PTRip.rar.html
http://turbobit.net/rrltlecaae9r/B10.S01B07.TR.DvD.XviD-PTRip.rar.html
http://turbobit.net/svwufdvi28hm/B10.S01B08.TR.DvD.XviD-PTRip.rar.html
http://turbobit.net/vdds0lwu1e33/B10.S01B09.TR.DvD.XviD-PTRip.rar.html
http://turbobit.net/q82sy3x88deg/B10.S01B10.TR.DvD.XviD-PTRip.rar.html
http://turbobit.net/f6d6xk8bcyrh/B10.S01B11.TR.DvD.XviD-PTRip.rar.html
http://turbobit.net/5whwz5e7c3kh/B10.S01B12.TR.DvD.XviD-PTRip.rar.html
http://turbobit.net/gocw6ocqqi56/B10.S01B13.TR.DvD.XviD-PTRip.rar.html

Sezon 2[/size]
http://turbobit.net/f7pxpnwnvbae/B10.S02B01.TR.DvD.XviD-PTRip.rar.html
http://turbobit.net/9vyhr0p356pm/B10.S02B02.TR.DvD.XviD-PTRip.rar.html
http://turbobit.net/3k50yzillnkd/B10.S02B03.TR.DvD.XviD-PTRip.rar.html
http://turbobit.net/tpqbf306vmyu/B10.S02B04.TR.DvD.XviD-PTRip.rar.html
http://turbobit.net/sk5lem1dgs9n/B10.S02B05.TR.DvD.XviD-PTRip.rar.html
http://turbobit.net/feecvqj3wc35/B10.S02B06.TR.DvD.XviD-PTRip.rar.html
http://turbobit.net/gtfmxdnr60u4/B10.S02B07.TR.DvD.XviD-PTRip.rar.html
http://turbobit.net/opvyhens75n9/B10.S02B08.TR.DvD.XviD-PTRip.rar.html
http://turbobit.net/x1m0u9pwwg54/B10.S02B09.TR.DvD.XviD-PTRip.rar.html
http://turbobit.net/dhh4d9s1un4z/B10.S02B10.TR.DvD.XviD-PTRip.rar.html
http://turbobit.net/yc299pzo1of8/B10.S02B11.TR.DvD.XviD-PTRip.rar.html
http://turbobit.net/f2flhh6dzdb2/B10.S02B12.TR.DvD.XviD-PTRip.rar.html
http://turbobit.net/xpfvfmk6k861/B10.S02B13.TR.DvD.XviD-PTRip.rar.html

Sezon 3[/size]
http://turbobit.net/yjn6a0z9azsq/B10.S03B01.TR.DvD.XviD-PTRip.rar.html
http://turbobit.net/o4m6xi95v6zi/B10.S03B02.TR.DvD.XviD-PTRip.rar.html
http://turbobit.net/vlm8ldsxn3bx/B10.S03B03.TR.DvD.XviD-PTRip.rar.html
http://turbobit.net/eo718xurrmh1/B10.S03B04.TR.DvD.XviD-PTRip.rar.html
http://turbobit.net/adc2qc84ck3u/B10.S03B05.TR.DvD.XviD-PTRip.rar.html
http://turbobit.net/ai8gxcjwe5po/B10.S03B06.TR.DvD.XviD-PTRip.rar.html
http://turbobit.net/gqcw0xnjbe9l/B10.S03B07.TR.DvD.XviD-PTRip.rar.html
http://turbobit.net/8k083sak0usg/B10.S03B08.TR.DvD.XviD-PTRip.rar.html
http://turbobit.net/wfhmyimtk2mz/B10.S03B09.TR.DvD.XviD-PTRip.rar.html
http://turbobit.net/hf2dw7itddg6/B10.S03B10.TR.DvD.XviD-PTRip.rar.html
http://turbobit.net/zs5ecl8yod82/B10.S03B11.TR.DvD.XviD-PTRip.rar.html
http://turbobit.net/s1pk8mssktqo/B10.S03B12.TR.DvD.XviD-PTRip.rar.html
http://turbobit.net/c3fuifl7lwbe/B10.S03B13.TR.DvD.XviD-PTRip.rar.html

Sezon 4[/size]
http://turbobit.net/gz19ihgk2y7c/B10.S04B01.TR.DvD.XviD-PTRip.rar.html
http://turbobit.net/pkg3bro45cay/B10.S04B02.TR.DvD.XviD-PTRip.rar.html
http://turbobit.net/4onk86m8adrs/B10.S04B03.TR.DvD.XviD-PTRip.rar.html
http://turbobit.net/6gwri1ghdlou/B10.S04B04.TR.DvD.XviD-PTRip.rar.html
http://turbobit.net/ue4c32scltiy/B10.S04B05.TR.DvD.XviD-PTRip.rar.html
http://turbobit.net/ngw4ug5qzgb9/B10.S04B06.TR.DvD.XviD-PTRip.rar.html
http://turbobit.net/et1grdh9lneo/B10.S04B07.TR.DvD.XviD-PTRip.rar.html
http://turbobit.net/smr7kmxnmsjz/B10.S04B08.TR.DvD.XviD-PTRip.rar.html
http://turbobit.net/mng54hmg9q7k/B10.S04B09.TR.DvD.XviD-PTRip.rar.html
http://turbobit.net/a78edarzlabz/B10.S04B10.TR.DVBRip.XviD.rar.html
http://turbobit.net/m1dac5hzn1ax/B10.S04B11.TR.DVBRip.XviD.rar.html
http://turbobit.net/4g73vwbtf773/B10.S04B12.TR.DVBRip.XviD.rar.html
http://turbobit.net/uboybs98k1rj/B10.S04B13.TR.DvD.XviD-PTRip.rar.html

4x10-11-12 Secret of the Omnitrix adlı filmdir. Dili türkçe, görüntü dvbrip tir. [rip by gunisigi] Sezon 3 ve 4 ses dosyaları [gunisigi][/size]

SEZON 1-2 TÜRKÇE DVD'DEN RİPLENMİŞTİR. SEZON 3-4 TÜRKÇE SES EKLENEREK YAPILMIŞTIR.[/size]


www.pokemonturkiye.com[/size]

[/align]

Alıntı
Gönderildi : 9 Eylül 2011 22:12
Zeynell
(@zeynell)
Aday Eğitmen

Hocam sezon 4 bölüm 4 sorunlu arşivden çıkmıyor

CevapAlıntı
Gönderildi : 14 Temmuz 2012 00:04
Mehmet©
(@mehmet1989)
Yönetici Admin

indirdim sorun yok. eksik indirmişsin. :/

CevapAlıntı
Gönderildi : 14 Temmuz 2012 11:12
cosper
(@cosper)
Aday Eğitmen

Dostum sen harikasın çok sağol  :slobber:

CevapAlıntı
Gönderildi : 15 Temmuz 2012 23:52
ArchiuS
(@archius)
Yeni Eğitmen

2. sezon da 3. ve 13. bölüm linkleri hariç diğer bölüm linklerinde indirme sorunu yaşıyorum kontrol eder misiniz ?

CevapAlıntı
Gönderildi : 13 Eylül 2012 11:14
anex
 anex
(@anex)
Aday Eğitmen
Gönderen: @mehmet1989

[align=center:2bgq8h83]


http://www.imdb.com/title/tt0760437/


[align=left]

General
Complete name                    : 01 - And Then There Were 10.avi
Format                          : AVI
Format/Info                      : Audio Video Interleave
File size                        : 176 MiB
Duration                        : 21mn 59s
Overall bit rate                : 1 120 Kbps
Writing application              : VirtualDubMod 1.5.10.2 (build 2540/release)
Writing library                  : VirtualDubMod build 2540/release

Video
ID                              : 0
Format                          : MPEG-4 Visual
Format profile                  : Advanced Simple@L5
Format settings, BVOP            : Yes
Format settings, QPel            : Yes
Format settings, GMC            : 3 warppoints
Format settings, Matrix          : Default (H.263)
Codec ID                        : XVID
Codec ID/Hint                    : XviD
Duration                        : 21mn 59s
Bit rate                        : 986 Kbps
Width                            : 640 pixels
Height                          : 480 pixels
Display aspect ratio            : 4:3
Frame rate                      : 25.000 fps
Color space                      : YUV
Chroma subsampling              : 4:2:0
Bit depth                        : 8 bits
Scan type                        : Progressive
Bits/(Pixel*Frame)              : 0.128
Stream size                      : 155 MiB (88%)
Writing library                  : XviD 1.2.1 (UTC 2008-12-04)

Audio
ID                              : 1
Format                          : MPEG Audio
Format version                  : Version 1
Format profile                  : Layer 3
Codec ID                        : 55
Codec ID/Hint                    : MP3
Duration                        : 21mn 59s
Bit rate mode                    : Variable
Bit rate                        : 121 Kbps
Nominal bit rate                : 128 Kbps
Channel(s)                      : 2 channels
Sampling rate                    : 48.0 KHz
Stream size                      : 19.1 MiB (11%)
Alignment                        : Aligned on interleaves
Interleave, duration            : 24 ms (0.60 video frame)
Interleave, preload duration    : 503 ms
Writing library                  : LAME3.98r
Encoding settings                : -m s -V 4 -q 2 -lowpass 17 --abr 128

[/align:2bgq8h83]






Sezon 1[/size]
http://turbobit.net/s1cyxut6phj5/B10.S01B01.TR.DvD.XviD-PTRip.rar.html
http://turbobit.net/1vlxgft7g2fn/B10.S01B02.TR.DvD.XviD-PTRip.rar.html
http://turbobit.net/5vtvpehkuuas/B10.S01B03.TR.DvD.XviD-PTRip.rar.html
http://turbobit.net/6e8xc2kvudgy/B10.S01B04.TR.DvD.XviD-PTRip.rar.html
http://turbobit.net/rrngqhv3y3pn/B10.S01B05.TR.DvD.XviD-PTRip.rar.html
http://turbobit.net/dcm04rth9ns2/B10.S01B06.TR.DvD.XviD-PTRip.rar.html
http://turbobit.net/rrltlecaae9r/B10.S01B07.TR.DvD.XviD-PTRip.rar.html
http://turbobit.net/svwufdvi28hm/B10.S01B08.TR.DvD.XviD-PTRip.rar.html
http://turbobit.net/vdds0lwu1e33/B10.S01B09.TR.DvD.XviD-PTRip.rar.html
http://turbobit.net/q82sy3x88deg/B10.S01B10.TR.DvD.XviD-PTRip.rar.html
http://turbobit.net/f6d6xk8bcyrh/B10.S01B11.TR.DvD.XviD-PTRip.rar.html
http://turbobit.net/5whwz5e7c3kh/B10.S01B12.TR.DvD.XviD-PTRip.rar.html
http://turbobit.net/gocw6ocqqi56/B10.S01B13.TR.DvD.XviD-PTRip.rar.html

Sezon 2[/size]
http://turbobit.net/f7pxpnwnvbae/B10.S02B01.TR.DvD.XviD-PTRip.rar.html
http://turbobit.net/9vyhr0p356pm/B10.S02B02.TR.DvD.XviD-PTRip.rar.html
http://turbobit.net/3k50yzillnkd/B10.S02B03.TR.DvD.XviD-PTRip.rar.html
http://turbobit.net/tpqbf306vmyu/B10.S02B04.TR.DvD.XviD-PTRip.rar.html
http://turbobit.net/sk5lem1dgs9n/B10.S02B05.TR.DvD.XviD-PTRip.rar.html
http://turbobit.net/feecvqj3wc35/B10.S02B06.TR.DvD.XviD-PTRip.rar.html
http://turbobit.net/gtfmxdnr60u4/B10.S02B07.TR.DvD.XviD-PTRip.rar.html
http://turbobit.net/opvyhens75n9/B10.S02B08.TR.DvD.XviD-PTRip.rar.html
http://turbobit.net/x1m0u9pwwg54/B10.S02B09.TR.DvD.XviD-PTRip.rar.html
http://turbobit.net/dhh4d9s1un4z/B10.S02B10.TR.DvD.XviD-PTRip.rar.html
http://turbobit.net/yc299pzo1of8/B10.S02B11.TR.DvD.XviD-PTRip.rar.html
http://turbobit.net/f2flhh6dzdb2/B10.S02B12.TR.DvD.XviD-PTRip.rar.html
http://turbobit.net/xpfvfmk6k861/B10.S02B13.TR.DvD.XviD-PTRip.rar.html

Sezon 3[/size]
http://turbobit.net/yjn6a0z9azsq/B10.S03B01.TR.DvD.XviD-PTRip.rar.html
http://turbobit.net/o4m6xi95v6zi/B10.S03B02.TR.DvD.XviD-PTRip.rar.html
http://turbobit.net/vlm8ldsxn3bx/B10.S03B03.TR.DvD.XviD-PTRip.rar.html
http://turbobit.net/eo718xurrmh1/B10.S03B04.TR.DvD.XviD-PTRip.rar.html
http://turbobit.net/adc2qc84ck3u/B10.S03B05.TR.DvD.XviD-PTRip.rar.html
http://turbobit.net/ai8gxcjwe5po/B10.S03B06.TR.DvD.XviD-PTRip.rar.html
http://turbobit.net/gqcw0xnjbe9l/B10.S03B07.TR.DvD.XviD-PTRip.rar.html
http://turbobit.net/8k083sak0usg/B10.S03B08.TR.DvD.XviD-PTRip.rar.html
http://turbobit.net/wfhmyimtk2mz/B10.S03B09.TR.DvD.XviD-PTRip.rar.html
http://turbobit.net/hf2dw7itddg6/B10.S03B10.TR.DvD.XviD-PTRip.rar.html
http://turbobit.net/zs5ecl8yod82/B10.S03B11.TR.DvD.XviD-PTRip.rar.html
http://turbobit.net/s1pk8mssktqo/B10.S03B12.TR.DvD.XviD-PTRip.rar.html
http://turbobit.net/c3fuifl7lwbe/B10.S03B13.TR.DvD.XviD-PTRip.rar.html

Sezon 4[/size]
http://turbobit.net/gz19ihgk2y7c/B10.S04B01.TR.DvD.XviD-PTRip.rar.html
http://turbobit.net/pkg3bro45cay/B10.S04B02.TR.DvD.XviD-PTRip.rar.html
http://turbobit.net/4onk86m8adrs/B10.S04B03.TR.DvD.XviD-PTRip.rar.html
http://turbobit.net/6gwri1ghdlou/B10.S04B04.TR.DvD.XviD-PTRip.rar.html
http://turbobit.net/ue4c32scltiy/B10.S04B05.TR.DvD.XviD-PTRip.rar.html
http://turbobit.net/ngw4ug5qzgb9/B10.S04B06.TR.DvD.XviD-PTRip.rar.html
http://turbobit.net/et1grdh9lneo/B10.S04B07.TR.DvD.XviD-PTRip.rar.html
http://turbobit.net/smr7kmxnmsjz/B10.S04B08.TR.DvD.XviD-PTRip.rar.html
http://turbobit.net/mng54hmg9q7k/B10.S04B09.TR.DvD.XviD-PTRip.rar.html
http://turbobit.net/a78edarzlabz/B10.S04B10.TR.DVBRip.XviD.rar.html
http://turbobit.net/m1dac5hzn1ax/B10.S04B11.TR.DVBRip.XviD.rar.html
http://turbobit.net/4g73vwbtf773/B10.S04B12.TR.DVBRip.XviD.rar.html
http://turbobit.net/uboybs98k1rj/B10.S04B13.TR.DvD.XviD-PTRip.rar.html

4x10-11-12 Secret of the Omnitrix adlı filmdir. Dili türkçe, görüntü dvbrip tir. [rip by gunisigi] Sezon 3 ve 4 ses dosyaları [gunisigi][/size]

SEZON 1-2 TÜRKÇE DVD'DEN RİPLENMİŞTİR. SEZON 3-4 TÜRKÇE SES EKLENEREK YAPILMIŞTIR.[/size]


www.pokemonturkiye.com[/size]

[/align]

reis hala forumdamısın onu bile bilmiyorum ama eğer hala aktifsen ve bu dosyalar elinde varsa bana atabilir misin acaba ? linkler kırılmış sitelerdeki filan da çok düşük kalitede bunlar  orijinal kaynaktır diye düşünüyorum ki eğer öyleyse daha yüksek görüntü kalitesindedir lütfen geri dönüş yapar mısın 

 

CevapAlıntı
Gönderildi : 27 Nisan 2020 16:13
Share: